Recent Movies

Watchmen 2009 The Ultimate Cut PSP


General

Complete name : W2009TUC.mp4
Format : MPEG-4
Format profile : Base Media / Version 2
Codec ID : mp42
File size : 1 022 MiB
Duration : 3h 35mn
Overall bit rate mode : Variable
Overall bit rate : 664 Kbps
Encoded date : UTC 2014-03-03 18:54:37
Tagged date : UTC 2014-03-03 19:57:37
Writing application : HandBrake 0.9.9 2013052900


Video

ID : 1
Format : AVC
Format/Info : Advanced Video Codec
Format profile : Baseline@L2.0
Format settings, CABAC : No
Format settings, ReFrames : 2 frames
Codec ID : avc1
Codec ID/Info : Advanced Video Coding
Duration : 3h 35mn
Bit rate mode : Variable
Bit rate : 500 Kbps
Width : 480 pixels
Height : 208 pixels
Display aspect ratio : 2.35:1
Frame rate mode : Variable
Frame rate : 23.976 fps
Minimum frame rate : 23.974 fps
Maximum frame rate : 23.981 fps
Color space : YUV
Chroma subsampling : 4:2:0
Bit depth : 8 bits
Scan type : Progressive
Bits/(Pixel*Frame) : 0.209
Stream size : 770 MiB (75%)
Writing library : x264 core 130 r2273 b3065e6
Encoding settings : cabac=0 / ref=2 / deblock=1:0:0 / analyse=0x1:0x111 / me=umh / subme=6 / psy=1 / psy_rd=1.00:0.00 / mixed_ref=1 / me_range=16 / chroma_me=1 / trellis=0 / 8x8dct=0 / cqm=0 / deadzone=21,11 / fast_pskip=1 / chroma_qp_offset=-2 / threads=6 / lookahead_threads=1 / sliced_threads=0 / nr=0 / decimate=1 / interlaced=0 / bluray_compat=0 / constrained_intra=0 / bframes=0 / weightp=0 / keyint=240 / keyint_min=24 / scenecut=40 / intra_refresh=0 / rc_lookahead=40 / rc=2pass / mbtree=1 / bitrate=500 / ratetol=1.0 / qcomp=0.60 / qpmin=0 / qpmax=69 / qpstep=4 / cplxblur=20.0 / qblur=0.5 / ip_ratio=1.40 / aq=1:1.00
Encoded date : UTC 2014-03-03 18:54:37
Tagged date : UTC 2014-03-03 19:57:37
Color primaries : BT.709
Transfer characteristics : BT.709
Matrix coefficients : BT.709


Audio

ID : 2
Format : AAC
Format/Info : Advanced Audio Codec
Format profile : LC
Codec ID : 40
Duration : 3h 35mn
Bit rate mode : Variable
Bit rate : 160 Kbps
Maximum bit rate : 206 Kbps
Channel(s) : 2 channels
Channel positions : Front: L R
Sampling rate : 48.0 KHz
Compression mode : Lossy
Stream size : 247 MiB (24%)
Language : English
Encoded date : UTC 2014-03-03 18:54:37
Tagged date : UTC 2014-03-03 19:57:37


Menu

ID : 3
Codec ID : text
Duration : 3h 35mn
Encoded date : UTC 2014-03-03 18:54:37
Tagged date : UTC 2014-03-03 19:57:37
Bit rate mode : VBR

Storyline
In a gritty and alternate 1985 the glory days of costumed vigilantes have been brought to a close by a government crackdown, but after one of the masked veterans is brutally murdered an investigation into the killer is initiated. The reunited heroes set out to prevent their own destruction, but in doing so discover a deeper and far more diabolical plot.

Trailer

Man of Steel 2013 Sony PSP Format


General

Complete name : MOS2013.mp4
Format : MPEG-4
Format profile : Base Media / Version 2
Codec ID : mp42
File size : 579 MiB
Duration : 2h 23mn
Overall bit rate mode : Variable
Overall bit rate : 565 Kbps
Encoded date : UTC 2013-12-12 00:45:46
Tagged date : UTC 2013-12-12 01:23:49
Writing application : HandBrake 0.9.9 2013052900


Video

ID : 1
Format : AVC
Format/Info : Advanced Video Codec
Format profile : Baseline@L2.0
Format settings, CABAC : No
Format settings, ReFrames : 2 frames
Format settings, GOP : N=1
Codec ID : avc1
Codec ID/Info : Advanced Video Coding
Duration : 2h 23mn
Bit rate mode : Variable
Bit rate : 450 Kbps
Width : 480 pixels
Height : 208 pixels
Display aspect ratio : 2.35:1
Frame rate mode : Variable
Frame rate : 23.976 fps
Minimum frame rate : 23.974 fps
Maximum frame rate : 23.981 fps
Color space : YUV
Chroma subsampling : 4:2:0
Bit depth : 8 bits
Scan type : Progressive
Bits/(Pixel*Frame) : 0.188
Stream size : 460 MiB (80%)
Writing library : x264 core 130 r2273 b3065e6
Encoding settings : cabac=0 / ref=2 / deblock=1:0:0 / analyse=0x1:0x111 / me=umh / subme=6 / psy=1 / psy_rd=1.00:0.00 / mixed_ref=1 / me_range=16 / chroma_me=1 / trellis=0 / 8x8dct=0 / cqm=0 / deadzone=21,11 / fast_pskip=1 / chroma_qp_offset=-2 / threads=6 / lookahead_threads=1 / sliced_threads=0 / nr=0 / decimate=1 / interlaced=0 / bluray_compat=0 / constrained_intra=0 / bframes=0 / weightp=0 / keyint=240 / keyint_min=24 / scenecut=40 / intra_refresh=0 / rc_lookahead=40 / rc=2pass / mbtree=1 / bitrate=450 / ratetol=1.0 / qcomp=0.60 / qpmin=0 / qpmax=69 / qpstep=4 / cplxblur=20.0 / qblur=0.5 / ip_ratio=1.40 / aq=1:1.00
Encoded date : UTC 2013-12-12 00:45:46
Tagged date : UTC 2013-12-12 01:23:49
Color primaries : BT.709
Transfer characteristics : BT.709
Matrix coefficients : BT.709


Audio

ID : 2
Format : AAC
Format/Info : Advanced Audio Codec
Format profile : LC
Codec ID : 40
Duration : 2h 23mn
Bit rate mode : Variable
Bit rate : 112 Kbps
Maximum bit rate : 182 Kbps
Channel(s) : 2 channels
Channel positions : Front: L R
Sampling rate : 48.0 KHz
Compression mode : Lossy
Stream size : 115 MiB (20%)
Language : English
Encoded date : UTC 2013-12-12 00:45:46
Tagged date : UTC 2013-12-12 01:23:49



Storyline
A young boy learns that he has extraordinary powers and is not of this Earth. As a young man, he journeys to discover where he came from and what he was sent here to do. But the hero in him must emerge if he is to save the world from annihilation and become the symbol of hope for all mankind.


Trailer

Download

2 Guns 2013 Sony PSP Format


General

Complete name : 2.guns.2013.Sony.PSP.mp4
Format : MPEG-4
Format profile : Base Media / Version 2
Codec ID : mp42
File size : 442 MiB
Duration : 1h 49mn
Overall bit rate mode : Variable
Overall bit rate : 565 Kbps
Encoded date : UTC 2013-12-10 17:12:50
Tagged date : UTC 2013-12-10 17:48:42
Writing application : HandBrake 0.9.9 2013052900



Video

ID : 1
Format : AVC
Format/Info : Advanced Video Codec
Format profile : Baseline@L2.0
Format settings, CABAC : No
Format settings, ReFrames : 2 frames
Format settings, GOP : N=1
Codec ID : avc1
Codec ID/Info : Advanced Video Coding
Duration : 1h 49mn
Bit rate mode : Variable
Bit rate : 450 Kbps
Width : 480 pixels
Height : 208 pixels
Display aspect ratio : 2.35:1
Frame rate mode : Variable
Frame rate : 23.976 fps
Minimum frame rate : 23.974 fps
Maximum frame rate : 23.981 fps
Color space : YUV
Chroma subsampling : 4:2:0
Bit depth : 8 bits
Scan type : Progressive
Bits/(Pixel*Frame) : 0.188
Stream size : 352 MiB (80%)
Writing library : x264 core 130 r2273 b3065e6
Encoding settings : cabac=0 / ref=2 / deblock=1:0:0 / analyse=0x1:0x111 / me=umh / subme=6 / psy=1 / psy_rd=1.00:0.00 / mixed_ref=1 / me_range=16 / chroma_me=1 / trellis=0 / 8x8dct=0 / cqm=0 / deadzone=21,11 / fast_pskip=1 / chroma_qp_offset=-2 / threads=6 / lookahead_threads=1 / sliced_threads=0 / nr=0 / decimate=1 / interlaced=0 / bluray_compat=0 / constrained_intra=0 / bframes=0 / weightp=0 / keyint=240 / keyint_min=24 / scenecut=40 / intra_refresh=0 / rc_lookahead=40 / rc=2pass / mbtree=1 / bitrate=450 / ratetol=1.0 / qcomp=0.60 / qpmin=0 / qpmax=69 / qpstep=4 / cplxblur=20.0 / qblur=0.5 / ip_ratio=1.40 / aq=1:1.00
Encoded date : UTC 2013-12-10 17:12:50
Tagged date : UTC 2013-12-10 17:48:42
Color primaries : BT.709
Transfer characteristics : BT.709
Matrix coefficients : BT.709



Audio

ID : 2
Format : AAC
Format/Info : Advanced Audio Codec
Format profile : LC
Codec ID : 40
Duration : 1h 49mn
Bit rate mode : Variable
Bit rate : 112 Kbps
Maximum bit rate : 197 Kbps
Channel(s) : 2 channels
Channel positions : Front: L R
Sampling rate : 48.0 KHz
Compression mode : Lossy
Stream size : 87.4 MiB (20%)
Language : English
Encoded date : UTC 2013-12-10 17:12:50
Tagged date : UTC 2013-12-10 17:48:42



Storyline
Robert Trench, an undercover DEA agent, takes advantage of gunman Michael Stigman's idea to rob a bank to bust him and a mob boss. However, it proves too successful with much more money seized than anticipated with Trench's forces not stopping the getaway. Complicating things still more, Stigman turns out to be a Naval Intelligence agent who shoots Trench and takes the money. The interservice debacle suddenly finds Trench and Stigman in a bloody web of corrupt clandestine rivalries as they are hunted, blackmailed and isolated for the money on both sides of the law. Now, the fugitives must work together to find a way out of this situation with no one to turn to but themselves.

Trailer

The Wolverine 2013 PSP Format


General

CompleteName : The.wolverine.2013.extended.Sony.PSP.mp4
Format : MPEG-4
Format_Profile : Base Media / Version 2
CodecID : mp42
FileSize/String : 624 MiB
Duration/String : 2h 18mn
OverallBitRate_Mode/String : Variable
OverallBitRate/String : 631 Kbps
Encoded_Date : UTC 2013-12-09 04:38:50
Tagged_Date : UTC 2013-12-09 05:20:41
Encoded_Application : HandBrake 0.9.9 2013052900


Video

ID/String : 1
Format : AVC
Format/Info : Advanced Video Codec
Format_Profile : Baseline@L2.0
Format_Settings_CABAC/String : No
Format_Settings_RefFrames/String : 2 frames
CodecID : avc1
CodecID/Info : Advanced Video Coding
Duration/String : 2h 18mn
BitRate_Mode/String : Variable
BitRate/String : 500 Kbps
Width/String : 480 pixels
Height/String : 192 pixels
DisplayAspectRatio/String : 2.500
FrameRate_Mode/String : Variable
FrameRate/String : 23.976 fps
FrameRate_Minimum/String : 23.974 fps
FrameRate_Maximum/String : 23.981 fps
ColorSpace : YUV
ChromaSubsampling : 4:2:0
BitDepth/String : 8 bits
ScanType/String : Progressive
Bits-(Pixel*Frame) : 0.226
StreamSize/String : 494 MiB (79%)
Encoded_Library/String : x264 core 130 r2273 b3065e6
Encoded_Library_Settings : cabac=0 / ref=2 / deblock=1:0:0 / analyse=0x1:0x111 / me=umh / subme=6 / psy=1 / psy_rd=1.00:0.00 / mixed_ref=1 / me_range=16 / chroma_me=1 / trellis=0 / 8x8dct=0 / cqm=0 / deadzone=21,11 / fast_pskip=1 / chroma_qp_offset=-2 / threads=6 / lookahead_threads=1 / sliced_threads=0 / nr=0 / decimate=1 / interlaced=0 / bluray_compat=0 / constrained_intra=0 / bframes=0 / weightp=0 / keyint=240 / keyint_min=24 / scenecut=40 / intra_refresh=0 / rc_lookahead=40 / rc=2pass / mbtree=1 / bitrate=500 / ratetol=1.0 / qcomp=0.60 / qpmin=0 / qpmax=69 / qpstep=4 / cplxblur=20.0 / qblur=0.5 / ip_ratio=1.40 / aq=1:1.00
Encoded_Date : UTC 2013-12-09 04:38:50
Tagged_Date : UTC 2013-12-09 05:20:40
Color primaries : BT.709
Transfer characteristics : BT.709
Matrix coefficients : BT.709


Audio

ID/String : 2
Format : AAC
Format/Info : Advanced Audio Codec
Format_Profile : LC
CodecID : 40
Duration/String : 2h 18mn
BitRate_Mode/String : Variable
BitRate/String : 128 Kbps
BitRate_Maximum/String : 241 Kbps
Channel(s)/String : 2 channels
ChannelPositions : Front: L R
SamplingRate/String : 48.0 KHz
Compression_Mode/String : Lossy
StreamSize/String : 126 MiB (20%)
Language/String : English
Encoded_Date : UTC 2013-12-09 04:38:50
Tagged_Date : UTC 2013-12-09 05:20:40


Menu

ID/String : 3
CodecID : text
Duration/String : 2h 18mn
Encoded date : UTC 2013-12-09 04:38:50
Tagged date : UTC 2013-12-09 05:20:40
Bit rate mode : VBR

Storyline
In modern day Japan, Wolverine is out of his depth in an unknown world as he faces his ultimate nemesis in a life-or-death battle that will leave him forever changed. Vulnerable for the first time and pushed to his physical and emotional limits, he confronts not only lethal samurai steel but also his inner struggle against his own immortality, emerging more powerful than we have ever seen him before.

Trailer


Download Now

G.I. Joe: The Rise of Cobra Sony PSP Movie


General

Complete name : G.i. Joe The Rise Of Cobra-1.mp4
Format : MPEG-4
Format profile : Base Media / Version 2
Codec ID : mp42
File size : 786 MiB
Duration : 1h 57mn
Overall bit rate mode : Variable
Overall bit rate : 931 Kbps
Encoded date : UTC 2012-12-14 16:34:45
Tagged date : UTC 2012-12-14 17:24:39
Writing application : HandBrake 0.9.8 2012071700

Hellboy 2: The Golden Army Sony PSP Movie


General

CompleteName : Hellboy2-1.mp4
Format : MPEG-4
Format_Profile : Base Media / Version 2
CodecID : mp42
FileSize/String : 798 MiB
Duration/String : 1h 59mn
OverallBitRate_Mode/String : Variable
OverallBitRate/String : 931 Kbps
Encoded_Date : UTC 2012-12-15 08:34:17
Tagged_Date : UTC 2012-12-15 09:21:37
Encoded_Application : HandBrake 0.9.8 2012071700

Hellboy Sony PSP Movie


General
Complete name : Hellboy-1.mp4
Format : MPEG-4
Format profile : Base Media / Version 2
Codec ID : mp42
File size : 883 MiB
Duration : 2h 12mn
Overall bit rate mode : Variable
Overall bit rate : 932 Kbps
Encoded date : UTC 2012-12-14 18:27:06
Tagged date : UTC 2012-12-14 19:24:49
Writing application : HandBrake 0.9.8 2012071700


The Avengers Sony PSP



General
Complete name : The.Avengers.2012-Sony PSP.mp4
Format : MPEG-4
Format profile : Base Media
Codec ID : isom
File size : 575 MiB
Duration : 2h 22mn
Overall bit rate mode : Variable
Overall bit rate : 562 Kbps
Encoded date : UTC 2012-12-08 12:19:09
Tagged date : UTC 2012-12-08 12:19:09

Snow White and the Huntsman (Extended Version)



General
Complete name : Snow.White.and.the.Huntsman.2012.EXTENDED-Sony PSP.mp4
Format : MPEG-4
Format profile : Base Media
Codec ID : isom
File size : 460 MiB
Duration : 2h 11mn
Overall bit rate mode : Variable
Overall bit rate : 489 Kbps
Encoded date : UTC 2012-12-08 13:18:56
Tagged date : UTC 2012-12-08 13:18:56

Safe 2012 Sony PSP


General
Complete name : Safe.2012.1080p.BluRay-Sony PSP.mp4
Format : MPEG-4
Format profile : Base Media
Codec ID : isom
File size : 296 MiB
Duration : 1h 34mn
Overall bit rate mode : Variable
Overall bit rate : 437 Kbps

Titanic 1997 Sony PSP


General
Complete name : Titanic.1997-Sony PSP.mp4
Format : MPEG-4
Format profile : Base Media
Codec ID : isom
File size : 748 MiB
Duration : 3h 6mn
Overall bit rate mode : Variable
Overall bit rate : 560 Kbps
 
Copyright © 2015. Free Quality PSP Movies